How it works | IPTV Extreme | Read More

Kumba / Khumba (2013) PL.AC3.DVDRip.XviD-ALLIGATOR / Dubbing PL

Kumba / Khumba (2013) PL.AC3.DVDRip.XviD-ALLIGATOR / Dubbing PL


gatunek Animacja Familijny Przygodowy
produkcja: RPA
premiera: 11 października 2013 (Polska) 8 września 2013 (świat)
reżyseria: Anthony Silverston
scenariusz: Raffaella Delle Donne Anthony Silverston

Zebra Kumba rusza na poszukiwanie magicznego źródła. Jak głosi legenda, dzięki niemu pierwsze ssaki zyskały swoje pasy.

File size : 1.15 GiB
Duration : 1 h 21 min
Overall bit rate : 2 014 kb/s
Video
Codec ID/Hint : XviD
Duration : 1 h 21 min
Bit rate : 1 680 kb/s
Width : 720 pixels
Height : 300 pixels
Display aspect ratio : 2.40:1
Frame rate : 25.000 FPS
Stream size : 980 MiB (83%)

Audio
Format : AC-3
Bit rate : 320 kb/s
Channel(s) : 6 channels
Channel positions : Front: L C R, Side: L R, LFE
Sampling rate : 48.0 kHz
Bit depth : 16 bits
Compression mode : Lossy
Stream size : 187 MiB (16%)




Wszystko o newsie Kumba / Khumba (2013) PL.AC3.DVDRip.XviD-ALLIGATOR / Dubbing PL

News Kumba / Khumba (2013) PL.AC3.DVDRip.XviD-ALLIGATOR / Dubbing PL w sieciach społecznościowych

Serwis dostępny w wersji mobilnej Kumba / Khumba (2013) PL.AC3.DVDRip.XviD-ALLIGATOR / Dubbing PL Serwis dostepny jest równiez w wersji mobilnej.

4-07-2018, 16:43
0komentarze i odpowiedzi w newsie Kumba / Khumba (2013) PL.AC3.DVDRip.XviD-ALLIGATOR / Dubbing PL
Informacja
Członkowie grupy Gość nie posiadają uprawnień do komentowania tego artykułu.
все шаблоны для dle на сайте шаблоны dle 11.2 скачать
W górę